<?xml version="1.0" standalone="no"?>
<!DOCTYPE svg PUBLIC "-//W3C//DTD SVG 1.1//EN" "http://www.w3.org/Graphics/SVG/1.1/DTD/svg11.dtd" >
<svg xmlns="http://www.w3.org/2000/svg">
<metadata>Generated by IcoMoon</metadata>
<defs>
<font id="flexmonster-icons" horiz-adv-x="1024">
<font-face units-per-em="1024" ascent="960" descent="-64" />
<missing-glyph horiz-adv-x="1024" />
<glyph unicode="&#x20;" horiz-adv-x="512" d="" />
<glyph unicode="&#xe900;" glyph-name="act_date" d="M807.302 755.498h-590.605v-112.275h590.605v112.275zM216.697 573.164h590.605v-432.662h-590.605v432.662zM317.063 448.878c-13.465 0-24.381-10.913-24.381-24.381 0-13.463 10.916-24.381 24.381-24.381h48.762c13.465 0 24.381 10.918 24.381 24.381 0 13.468-10.916 24.381-24.381 24.381h-48.762zM487.712 448.878c-13.468 0-24.383-10.913-24.383-24.381 0-13.463 10.916-24.381 24.383-24.381h48.762c13.463 0 24.381 10.918 24.381 24.381 0 13.468-10.918 24.381-24.381 24.381h-48.762zM658.178 448.878c-13.463 0-24.381-10.913-24.381-24.381 0-13.463 10.918-24.381 24.381-24.381h48.762c13.468 0 24.381 10.918 24.381 24.381 0 13.468-10.913 24.381-24.381 24.381h-48.762zM317.075 313.544c-13.465 0-24.381-10.913-24.381-24.381 0-13.463 10.916-24.381 24.381-24.381h48.762c13.466 0 24.381 10.918 24.381 24.381 0 13.468-10.915 24.381-24.381 24.381h-48.762zM487.712 313.544c-13.468 0-24.383-10.913-24.383-24.381 0-13.463 10.916-24.381 24.383-24.381h48.762c13.463 0 24.381 10.918 24.381 24.381 0 13.468-10.918 24.381-24.381 24.381h-48.762zM658.178 313.544c-13.463 0-24.381-10.913-24.381-24.381 0-13.463 10.918-24.381 24.381-24.381h48.762c13.468 0 24.381 10.918 24.381 24.381 0 13.468-10.913 24.381-24.381 24.381h-48.762z" />
<glyph unicode="&#xe901;" glyph-name="act_calc" d="M339.432 658.69c0 8.378 6.792 15.17 15.17 15.17h314.787c8.378 0 15.17-6.792 15.17-15.17v-139.188c0-8.378-6.793-15.17-15.17-15.17h-314.787c-8.378 0-15.17 6.793-15.17 15.17v139.188zM320.469 658.69c0 18.851 15.282 34.133 34.133 34.133h314.787c18.849 0 34.133-15.282 34.133-34.133v-139.188c0-18.853-15.284-34.133-34.133-34.133h-314.787c-18.851 0-34.133 15.28-34.133 34.133v139.188zM358.395 654.897v-131.603h307.202v131.603h-307.202zM339.432 393.993c-10.473 0-18.963-8.488-18.963-18.963 0-10.471 8.49-18.963 18.963-18.963h56.889c10.473 0 18.965 8.492 18.965 18.963 0 10.475-8.492 18.963-18.965 18.963h-56.889zM608.708 375.030c0 10.475 8.492 18.963 18.963 18.963h56.889c10.475 0 18.963-8.488 18.963-18.963 0-10.471-8.488-18.963-18.963-18.963h-56.889c-10.471 0-18.963 8.492-18.963 18.963zM339.432 308.364c-10.473 0-18.963-8.488-18.963-18.963 0-10.471 8.49-18.963 18.963-18.963h56.889c10.473 0 18.965 8.492 18.965 18.963 0 10.475-8.492 18.963-18.965 18.963h-56.889zM464.59 375.068c0 10.471 8.492 18.963 18.963 18.963h56.889c10.471 0 18.963-8.492 18.963-18.963s-8.492-18.963-18.963-18.963h-56.889c-10.471 0-18.963 8.492-18.963 18.963zM483.553 308.364c-10.471 0-18.963-8.488-18.963-18.963 0-10.471 8.492-18.963 18.963-18.963h56.889c10.471 0 18.963 8.492 18.963 18.963 0 10.475-8.492 18.963-18.963 18.963h-56.889zM608.708 289.401c0 10.475 8.492 18.963 18.963 18.963h56.889c10.475 0 18.963-8.488 18.963-18.963 0-10.471-8.488-18.963-18.963-18.963h-56.889c-10.471 0-18.963 8.492-18.963 18.963zM339.442 222.773c-10.473 0-18.963-8.492-18.963-18.963 0-10.475 8.49-18.963 18.963-18.963h56.889c10.471 0 18.963 8.488 18.963 18.963 0 10.471-8.492 18.963-18.963 18.963h-56.889zM464.59 203.81c0 10.471 8.492 18.963 18.963 18.963h56.889c10.471 0 18.963-8.492 18.963-18.963 0-10.475-8.492-18.963-18.963-18.963h-56.889c-10.471 0-18.963 8.488-18.963 18.963zM627.671 222.773c-10.471 0-18.963-8.492-18.963-18.963 0-10.475 8.492-18.963 18.963-18.963h56.889c10.475 0 18.963 8.488 18.963 18.963 0 10.471-8.488 18.963-18.963 18.963h-56.889zM201.405 744.142c0 31.419 25.47 56.889 56.889 56.889h507.413c31.418 0 56.889-25.47 56.889-56.889v-634.95c0-31.418-25.471-56.889-56.889-56.889h-507.413c-31.419 0-56.889 25.471-56.889 56.889v634.95zM258.293 763.105c-10.473 0-18.963-8.49-18.963-18.963v-634.95c0-10.471 8.49-18.963 18.963-18.963h507.413c10.471 0 18.963 8.492 18.963 18.963v634.95c0 10.473-8.492 18.963-18.963 18.963h-507.413z" />
<glyph unicode="&#xe902;" glyph-name="act_check" d="M232.724 476.925c9.472 9.567 24.91 9.65 34.479 0.176l165.889-164.215 323.666 321.86c9.548 9.495 24.986 9.452 34.48-0.097s9.45-24.985-0.098-34.48l-340.817-338.913c-9.495-9.445-24.828-9.46-34.344-0.039l-183.080 181.228c-9.57 9.474-9.648 24.908-0.175 34.48z" />
<glyph unicode="&#xe903;" glyph-name="act_close" d="M270.642 219.791c-9.521-9.523-9.521-24.961 0-34.48 9.521-9.523 24.958-9.523 34.48 0l206.877 206.877 206.879-206.882c9.523-9.523 24.961-9.523 34.48 0 9.523 9.523 9.523 24.956 0 34.48l-206.877 206.882 206.882 206.88c9.518 9.521 9.518 24.958 0 34.48-9.523 9.522-24.961 9.522-34.48 0l-206.884-206.88-206.878 206.876c-9.521 9.521-24.958 9.521-34.48 0s-9.522-24.958 0-34.48l206.877-206.876-206.877-206.877z" />
<glyph unicode="&#xe905;" glyph-name="act_filter" d="M190.171 621.715l224.305-253.563v-282.819l190.171 68.267v209.676l229.181 258.439h-643.657zM853.333 768.001h-682.667v-97.524h682.667v97.524z" />
<glyph unicode="&#xe906;" glyph-name="act_font" d="M378.17 269.641h271.727l60.424-158.58h124.041l-260.111 629.685-104.592 1.527-280.021-631.211h122.598l65.935 158.58zM417.418 360.917l102.097 213.609 85.239-213.609h-187.335z" />
<glyph unicode="&#xe907;" glyph-name="act_move" d="M256.046 646.096c-13.466 0-24.381-10.916-24.381-24.381s10.915-24.381 24.381-24.381h511.908c13.463 0 24.381 10.916 24.381 24.381s-10.918 24.381-24.381 24.381h-511.908zM231.665 426.666c0 13.468 10.915 24.381 24.381 24.381h511.908c13.463 0 24.381-10.913 24.381-24.381 0-13.463-10.918-24.381-24.381-24.381h-511.908c-13.466 0-24.381 10.918-24.381 24.381zM231.665 231.619c0 13.468 10.915 24.381 24.381 24.381h511.908c13.463 0 24.381-10.913 24.381-24.381 0-13.463-10.918-24.381-24.381-24.381h-511.908c-13.466 0-24.381 10.918-24.381 24.381z" />
<glyph unicode="&#xe908;" glyph-name="act_roll_down" d="M238.788 571.892c9.522 9.521 24.959 9.521 34.48 0l238.73-238.732 238.734 238.729c9.523 9.521 24.961 9.521 34.48-0.001 9.523-9.521 9.523-24.958 0-34.48l-255.976-255.965c-9.518-9.523-24.957-9.523-34.479 0l-255.97 255.969c-9.521 9.521-9.521 24.958 0 34.48z" />
<glyph unicode="&#xe909;" glyph-name="act_roll_up" d="M273.267 281.441c-9.521-9.518-24.958-9.518-34.48 0-9.521 9.523-9.521 24.961 0 34.48l255.97 255.971c4.725 4.724 10.906 7.104 17.097 7.14 6.288 0.039 12.593-2.342 17.391-7.14l255.966-255.971c9.523-9.518 9.523-24.956 0-34.48-9.518-9.518-24.956-9.518-34.48 0l-238.731 238.734-238.733-238.734z" />
<glyph unicode="&#xe90a;" glyph-name="act_search" d="M660.945 307.281h33.792l162.338-162.358-63.327-63.327-162.363 162.338v33.802l-12.644 12.673c-46.47-42.252-109.783-67.569-177.384-67.569-151.967 0-274.432 122.417-274.432 274.448 0 151.997 122.465 274.45 274.432 274.45 152.004 0 274.489-122.453 274.489-274.45 0-67.551-25.322-130.897-67.545-177.333l12.644-12.673zM266.852 497.342c0-96.993 77.589-174.588 174.575-174.588 97.023 0 174.608 77.595 174.608 174.588 0 96.978-77.585 174.587-174.608 174.587-96.986 0-174.575-77.609-174.575-174.587z" />
<glyph unicode="&#xe90b;" glyph-name="act_sigma" d="M248.402 689.307c7.849 17.558 25.285 28.862 44.517 28.862h438.296c26.931 0 48.762-21.831 48.762-48.762v-116.468h-97.524v67.706h-280.45l143.819-160.682c16.535-18.476 16.574-46.416 0.093-64.936l-144.462-162.338h281v75.717h97.524v-124.479c0-26.931-21.831-48.762-48.762-48.762h-438.428c-19.207 0-36.625 11.274-44.488 28.799s-4.707 38.029 8.061 52.38l187.769 211.003-187.545 209.541c-12.826 14.33-16.031 34.861-8.183 52.42z" />
<glyph unicode="&#xe90c;" glyph-name="act_table_settings" d="M877.715 331.582c-48.762 4.876-87.771 48.762-87.771 97.524 0 48.76 39.010 87.77 87.771 97.522-14.629 58.514-48.762 117.029-97.524 160.914-29.257-39.010-87.771-48.762-131.657-24.381-39.010 24.381-58.514 73.143-39.010 117.029-63.39 14.629-131.657 14.629-190.171 0 19.505-43.886 0-97.524-43.886-121.905-43.886-19.505-102.4-9.752-131.657 29.257-19.505-19.505-43.886-43.886-58.514-73.143s-29.257-58.514-39.010-87.771c48.762-4.876 87.771-48.762 87.771-97.522 0-48.762-39.010-87.771-87.771-97.524 14.629-58.514 48.762-117.029 97.524-160.914 29.257 39.010 87.771 48.762 131.657 24.381s58.514-78.019 43.886-121.905c63.39-14.629 131.657-14.629 190.171 0-19.505 43.886 0 97.524 43.886 121.905s97.524 14.629 131.657-24.381c24.381 19.505 43.886 43.886 58.514 73.143s24.381 58.514 34.133 87.771zM448.611 321.829c-58.514 34.133-82.895 112.152-43.886 170.665 34.133 58.514 112.152 78.019 170.667 43.886s82.895-112.151 43.886-170.665c-34.133-58.514-112.152-78.019-170.667-43.886z" />
<glyph unicode="&#xe90d;" glyph-name="act_table_sort" d="M453.484 765.388v-398.097h-162.313c-26.066 0-39.119-31.515-20.688-49.942l220.828-220.833c11.425-11.425 29.95-11.425 41.379 0l220.828 220.833c18.432 18.427 5.378 49.942-20.69 49.942h-162.314v398.097h-117.031z" />
<glyph unicode="&#xe90e;" glyph-name="act_trash" d="M303.104 119.467c-0.001-0.073-0.001-0.16-0.001-0.247 0-18.851 15.282-34.133 34.133-34.133 1.444 0 2.867 0.090 4.264 0.264l341.167-0.017c0.818-0.070 1.77-0.109 2.731-0.109 18.851 0 34.133 15.282 34.133 34.133 0 0.038 0 0.077 0 0.115l24.576 483.663h-465.579zM589.824 482.987c0.182 7.777 6.529 14.011 14.332 14.011 0.241 0 0.481-0.006 0.72-0.018l23.86 0.001c0.106 0.003 0.231 0.004 0.357 0.004 7.867 0 14.289-6.19 14.66-13.966l0.001-276.172c-0.182-7.777-6.529-14.011-14.332-14.011-0.241 0-0.481 0.006-0.72 0.018l-23.86-0.001c-0.205-0.010-0.445-0.016-0.686-0.016-7.803 0-14.15 6.235-14.332 13.994zM485.035 482.987c0.182 7.777 6.529 14.011 14.332 14.011 0.241 0 0.481-0.006 0.72-0.018l23.86 0.001c0.205 0.010 0.445 0.016 0.686 0.016 7.803 0 14.15-6.235 14.332-13.994v-276.156c-0.182-7.777-6.529-14.011-14.332-14.011-0.241 0-0.481 0.006-0.72 0.018l-23.86-0.001c-0.205-0.010-0.445-0.016-0.686-0.016-7.803 0-14.15 6.235-14.332 13.994zM380.245 482.987c0.372 7.809 6.794 13.999 14.662 13.999 0.126 0 0.251-0.002 0.375-0.005h23.875c0.205 0.010 0.445 0.016 0.686 0.016 7.803 0 14.15-6.235 14.332-13.994v-276.156c-0.182-7.777-6.529-14.011-14.332-14.011-0.241 0-0.481 0.006-0.72 0.018l-23.86-0.001c-0.106-0.003-0.231-0.004-0.357-0.004-7.867 0-14.289 6.19-14.66 13.966zM761.856 733.867h-158.72v26.965c-0.183 4.001-3.472 7.176-7.502 7.176-0.123 0-0.245-0.003-0.366-0.009l-166.554 0.001c-0.104 0.005-0.226 0.008-0.349 0.008-4.030 0-7.319-3.175-7.501-7.16l-0.001-26.982h-158.72c-0.203 0.007-0.443 0.010-0.683 0.010-12.442 0-22.528-10.086-22.528-22.528 0-0.004 0-0.007 0-0.011v-68.266h546.133v68.267c0 0.003 0 0.007 0 0.010 0 12.442-10.086 22.528-22.528 22.528-0.24 0-0.479-0.004-0.717-0.011z" />
<glyph unicode="&#xe90f;" glyph-name="arrow_down" d="M511.999 213.334l298.667 426.667h-597.333l298.667-426.667z" />
<glyph unicode="&#xe910;" glyph-name="arrow_left" d="M298.667 426.667l426.667-298.667v597.333l-426.667-298.667z" />
<glyph unicode="&#xe911;" glyph-name="arrow_right" d="M725.333 426.667l-426.667 298.667v-597.333l426.667 298.667z" />
<glyph unicode="&#xe912;" glyph-name="arrow_up" d="M512 640l-298.667-426.667h597.333l-298.667 426.667z" />
<glyph unicode="&#xe946;" glyph-name="notif_arrow" d="M279.906 676.422c-4.875 4.878-12.783 4.878-17.66 0-4.876-4.875-4.876-12.783 0-17.66l232.096-232.093-232.096-232.098c-4.877-4.875-4.877-12.783 0-17.66 4.875-4.875 12.783-4.875 17.66 0l232.096 232.098 232.093-232.093c4.875-4.878 12.783-4.878 17.66 0 4.875 4.878 4.875 12.783 0 17.66l-232.093 232.093 232.091 232.091c4.878 4.875 4.878 12.783 0 17.66-4.875 4.875-12.783 4.875-17.66 0l-232.091-232.091-232.096 232.093z" />
<glyph unicode="&#xe947;" glyph-name="notif_confirm" d="M253.368 446.675c4.852 4.903 12.758 4.943 17.661 0.090l165.753-164.077 316.171 314.403c4.89 4.865 12.798 4.843 17.66-0.047 4.863-4.893 4.84-12.798-0.050-17.66l-324.955-323.142c-4.863-4.838-12.718-4.845-17.59-0.020l-174.561 172.794c-4.901 4.853-4.942 12.76-0.090 17.66z" />
<glyph unicode="&#xe948;" glyph-name="notif_info" d="M512 622.131c15.747 0 28.512 12.765 28.512 28.512s-12.765 28.512-28.512 28.512c-15.747 0-28.512-12.765-28.512-28.512s12.765-28.512 28.512-28.512zM499.512 186.667c0-6.896 5.592-12.488 12.488-12.488s12.488 5.592 12.488 12.488v374.634c0 6.898-5.592 12.488-12.488 12.488s-12.488-5.59-12.488-12.488v-374.634z" />
<glyph unicode="&#xe949;" glyph-name="notif_warning" d="M499.512 666.668c0 6.896 5.592 12.488 12.488 12.488s12.488-5.592 12.488-12.488v-374.634c0-6.896-5.592-12.488-12.488-12.488s-12.488 5.592-12.488 12.488v374.634zM512 231.203c15.747 0 28.512-12.765 28.512-28.512 0-15.745-12.765-28.512-28.512-28.512s-28.512 12.768-28.512 28.512c0 15.747 12.765 28.512 28.512 28.512z" />
<glyph unicode="&#xe94a;" glyph-name="kpi" d="M618.667 704c0-58.923-47.765-106.667-106.667-106.667s-106.667 47.744-106.667 106.667 47.765 106.667 106.667 106.667 106.667-47.744 106.667-106.667zM945.707 529.92h-156.373v135.040l156.373 138.667h-156.373v135.040h-554.667v-135.040h-152.96l152.96-138.667v-135.040h-152.96l152.96-138.667v-135.253h-154.667l152.96-138.667h1.707v-202.667h554.667v204.16l154.667 137.173h-154.667v135.253l156.373 138.667zM704-17.664h-387.563v888.875h387.563v-888.875zM618.667 426.667c0-58.923-47.765-106.667-106.667-106.667s-106.667 47.744-106.667 106.667 47.765 106.667 106.667 106.667 106.667-47.744 106.667-106.667zM618.667 149.334c0-58.923-47.765-106.667-106.667-106.667s-106.667 47.744-106.667 106.667 47.765 106.667 106.667 106.667 106.667-47.744 106.667-106.667z" />
<glyph unicode="&#xe94c;" glyph-name="arrow_fields_open" d="M790.879 678.75c7.407 7.405 7.407 19.412 0 26.817-7.403 7.405-19.41 7.405-26.817 0l-293.137-293.136-210.986 210.987c-5.423 5.423-13.58 7.046-20.666 4.111s-11.706-9.85-11.706-17.52v-448.834c0-10.471 8.49-18.963 18.963-18.963h448.833c7.672 0 14.586 4.619 17.522 11.708 2.935 7.085 1.312 15.242-4.111 20.666l-211.027 211.027 293.133 293.136zM265.493 180.139v384.090l384.090-384.090h-384.090z" />
<glyph unicode="&#xe94f;" glyph-name="edit" d="M231.244 131.292l35.088 209.262 174.173-174.173-209.261-35.089zM475.086 200.904l-174.173 174.173 404.783 404.78 174.173-174.172-404.783-404.781z" />
<glyph unicode="&#xe950;" glyph-name="kpi_status_good" d="M512 938.667c-282.773 0-512-229.227-512-512s229.227-512 512-512 512 229.227 512 512-229.227 512-512 512z" />
<glyph unicode="&#xe951;" glyph-name="kpi_status_bad" d="M512 938.667c-282.773 0-512-229.227-512-512s229.227-512 512-512 512 229.227 512 512-229.227 512-512 512zM512 42.667c-212.075 0-384 171.925-384 384s171.925 384 384 384c212.075 0 384-171.925 384-384s-171.925-384-384-384z" />
<glyph unicode="&#xe952;" glyph-name="kpi_status_ok" d="M512 938.667c-282.773 0-512-229.227-512-512s229.227-512 512-512 512 229.227 512 512-229.227 512-512 512zM128 426.667c0 212.075 171.925 384 384 384v-768c-212.075 0-384 171.925-384 384z" />
<glyph unicode="&#xe953;" glyph-name="kpi_status_rising" d="M512 938.667c-282.667 0-512-229.333-512-512s229.333-512 512-512 512 229.333 512 512-229.333 512-512 512zM128 426.667c0 212.053 171.947 384 384 384v-384h-384z" />
<glyph unicode="&#xe954;" glyph-name="kpi_status_risk" d="M512 938.667c-282.667 0-512-229.333-512-512s229.333-512 512-512 512 229.333 512 512-229.333 512-512 512zM512 42.667c-212.053 0-384 171.947-384 384s171.947 384 384 384v-384h384c0-212.053-171.947-384-384-384z" />
<glyph unicode="&#xe97b;" glyph-name="spinner2" d="M1024 448c-1.278 66.862-15.784 133.516-42.576 194.462-26.704 61-65.462 116.258-113.042 161.92-47.552 45.696-103.944 81.82-164.984 105.652-61.004 23.924-126.596 35.352-191.398 33.966-64.81-1.282-129.332-15.374-188.334-41.356-59.048-25.896-112.542-63.47-156.734-109.576-44.224-46.082-79.16-100.708-102.186-159.798-23.114-59.062-34.128-122.52-32.746-185.27 1.286-62.76 14.964-125.148 40.134-182.206 25.088-57.1 61.476-108.828 106.11-151.548 44.61-42.754 97.472-76.504 154.614-98.72 57.118-22.304 118.446-32.902 179.142-31.526 60.708 1.29 120.962 14.554 176.076 38.914 55.15 24.282 105.116 59.48 146.366 102.644 41.282 43.14 73.844 94.236 95.254 149.43 13.034 33.458 21.88 68.4 26.542 103.798 1.246-0.072 2.498-0.12 3.762-0.12 35.346 0 64 28.652 64 64 0 1.796-0.094 3.572-0.238 5.332h0.238zM922.306 278.052c-23.472-53.202-57.484-101.4-99.178-141.18-41.67-39.81-91-71.186-144.244-91.79-53.228-20.678-110.29-30.452-166.884-29.082-56.604 1.298-112.596 13.736-163.82 36.474-51.25 22.666-97.684 55.49-135.994 95.712-38.338 40.198-68.528 87.764-88.322 139.058-19.87 51.284-29.228 106.214-27.864 160.756 1.302 54.552 13.328 108.412 35.254 157.69 21.858 49.3 53.498 93.97 92.246 130.81 38.73 36.868 84.53 65.87 133.874 84.856 49.338 19.060 102.136 28.006 154.626 26.644 52.5-1.306 104.228-12.918 151.562-34.034 47.352-21.050 90.256-51.502 125.624-88.782 35.396-37.258 63.21-81.294 81.39-128.688 18.248-47.392 26.782-98.058 25.424-148.496h0.238c-0.144-1.76-0.238-3.536-0.238-5.332 0-33.012 24.992-60.174 57.086-63.624-6.224-34.822-16.53-68.818-30.78-100.992z" />
<glyph unicode="&#xea0a;" glyph-name="plus" d="M551.385 662.976c0 21.751-17.633 39.385-39.385 39.385s-39.385-17.633-39.385-39.385v-196.923h-196.923c-21.751 0-39.385-17.633-39.385-39.385s17.633-39.385 39.385-39.385h196.923v-196.923c0-21.75 17.633-39.386 39.385-39.386s39.385 17.636 39.385 39.386v196.923h196.923c21.751 0 39.385 17.633 39.385 39.385s-17.633 39.385-39.385 39.385h-196.923v196.923z" />
<glyph unicode="&#xea0b;" glyph-name="minus" d="M236.307 426.667c0 21.751 17.633 39.385 39.385 39.385h472.615c21.751 0 39.385-17.633 39.385-39.385s-17.633-39.385-39.385-39.385h-472.615c-21.751 0-39.385 17.633-39.385 39.385z" />
<glyph unicode="&#xea0c;" glyph-name="info" d="M448 634.667c0 26.4 21.6 48 48 48h32c26.4 0 48-21.6 48-48v-32c0-26.4-21.6-48-48-48h-32c-26.4 0-48 21.6-48 48v32zM640 170.667h-256v64h64v192h-64v64h192v-256h64zM512 938.667c-282.77 0-512-229.23-512-512s229.23-512 512-512 512 229.23 512 512-229.23 512-512 512zM512 10.667c-229.75 0-416 186.25-416 416s186.25 416 416 416 416-186.25 416-416-186.25-416-416-416z" />
<glyph unicode="&#xea0e;" glyph-name="blocked" d="M874.040 810.040c-96.706 96.702-225.28 149.96-362.040 149.96s-265.334-53.258-362.040-149.96c-96.702-96.706-149.96-225.28-149.96-362.040s53.258-265.334 149.96-362.040c96.706-96.702 225.28-149.96 362.040-149.96s265.334 53.258 362.040 149.96c96.702 96.706 149.96 225.28 149.96 362.040s-53.258 265.334-149.96 362.040zM896 448c0-82.814-26.354-159.588-71.112-222.38l-535.266 535.268c62.792 44.758 139.564 71.112 222.378 71.112 211.738 0 384-172.262 384-384zM128 448c0 82.814 26.354 159.586 71.112 222.378l535.27-535.268c-62.794-44.756-139.568-71.11-222.382-71.11-211.738 0-384 172.262-384 384z" />
<glyph unicode="&#xea3a;" glyph-name="arrow-up2" d="M877.254 535.921l-320 320c-24.992 24.994-65.514 24.994-90.508 0l-320-320c-24.994-24.994-24.994-65.516 0-90.51 24.994-24.996 65.516-24.996 90.51 0l210.744 210.746v-613.49c0-35.346 28.654-64 64-64s64 28.654 64 64v613.49l210.746-210.746c12.496-12.496 28.876-18.744 45.254-18.744s32.758 6.248 45.254 18.746c24.994 24.994 24.994 65.514 0 90.508z" />
<glyph unicode="&#xea3b;" glyph-name="arrow-up-right2" d="M237.254 61.413l530.746 530.744v-229.49c0-35.346 28.654-64 64-64s64 28.654 64 64v384c0 25.884-15.594 49.222-39.508 59.126-7.924 3.284-16.242 4.84-24.492 4.838v0.036h-384c-35.346 0-64-28.654-64-64 0-35.348 28.654-64 64-64h229.49l-530.744-530.746c-12.498-12.496-18.746-28.876-18.746-45.254s6.248-32.758 18.746-45.254c24.992-24.994 65.516-24.994 90.508 0z" />
<glyph unicode="&#xea3c;" glyph-name="arrow-right2" d="M621.254 61.413l320 320c24.994 24.992 24.994 65.516 0 90.51l-320 320c-24.994 24.992-65.516 24.992-90.51 0-24.994-24.994-24.994-65.516 0-90.51l210.746-210.746h-613.49c-35.346 0-64-28.654-64-64s28.654-64 64-64h613.49l-210.746-210.746c-12.496-12.496-18.744-28.876-18.744-45.254s6.248-32.758 18.744-45.254c24.994-24.994 65.516-24.994 90.51 0z" />
<glyph unicode="&#xea3d;" glyph-name="arrow-down-right2" d="M146.746 701.413l530.742-530.746h-229.488c-35.346 0-64-28.654-64-64s28.654-64 64-64h384c25.884 0 49.222 15.594 59.126 39.508 3.284 7.924 4.84 16.242 4.838 24.492h0.036v384c0 35.346-28.654 64-64 64-35.348 0-64-28.654-64-64v-229.49l-530.746 530.744c-12.496 12.498-28.874 18.746-45.254 18.746s-32.758-6.248-45.254-18.746c-24.994-24.992-24.994-65.516 0-90.508z" />
<glyph unicode="&#xea3e;" glyph-name="arrow-down2" d="M877.254 317.413l-320-320c-24.992-24.994-65.514-24.994-90.508 0l-320 320c-24.994 24.994-24.994 65.516 0 90.51 24.994 24.996 65.516 24.996 90.51 0l210.744-210.746v613.49c0 35.346 28.654 64 64 64s64-28.654 64-64v-613.49l210.746 210.746c12.496 12.496 28.876 18.744 45.254 18.744s32.758-6.248 45.254-18.746c24.994-24.994 24.994-65.514 0-90.508z" />
</font>
</defs>
</svg>
